&title=[宴] 恋愛裁判
&artist=40mP
&first=0
&des=
&wholebpm=134
&demo_seek=65.5
&demo_len=16.7
&lv_7=協
&inote_7=(134.0){1},7/8/7?V58[4:5],
{1}1$/2V41[4:5],
{4}7/8/7?V58[4:5],,,1$/2$,
{16}2$,1$,,3$/4$,,3$,4$,,,,1$/4$,,,,,,
{4}5/1$/2V41[4:5],5,6,6,
{4}7/8/2$/7?V58[4:5],4$,3$,3$,
{4}7/1$/2V41[4:5],5,6,7/8,
{16}7,8,,5/6,,6,5,,,,5/8,,,,,,
{16}4h[16:3]/5h[16:3],,,3h[16:3]/6h[16:3],,,7/2$,,,,2$/3$,,6/7,,2$/3$,,
{16}4h[16:3]/5h[16:3],,,3h[16:3]/6h[16:3],,,7/2$,,,,7/8,8/1$,1$/2$,,6/7/2$/3$,,
{16}4h[16:3]/5h[16:3],,,3h[16:3]/6h[16:3],,,7/2$,,1h[16:3]/8h[16:3],,,2h[16:3]/7h[16:3],,,6/3$,,
{16}5/4$/3h[16:3]/6h[16:3],,,1h[16:3]/8h[16:3],,,5b/4b-1[8:1]*-2[8:1]/5?-7[8:1]*-8[8:1],,,,,,,,,,
{16}1h[16:11]/4h[16:11],,,,6/7,,6/7,,6/7,,,5h[16:13]/8h[16:13],,,1h[8:3],,
{16},,2$,,4h[4:1],,3$,,1-4[8:1],,7,6,,,5/8,,
{16}5h[16:11]/8h[16:11],,,,2$/3$,,2$/3$,,2$/3$,,,1h[16:13]/4h[16:13],,,8,,
{16}8h[4:1],,7,,5h[16:3],,6,6/6?-8[8:1],,,2$/3$,,2$/3$,,1$/4$,,
{16}1h[16:11]/4h[16:11],,,,6/7,,,,6/7,,,5h[16:13]/8h[16:13],,,1$,,
{16}1h[4:1],,2$,,4h[4:1],,3$,,1-4[8:1],,,6/7,,,5/8,,
{8}8/4$/8?^5[8:1],3$,2$,1$,8/4^1[8:1],7,6,5,
{8}8/4$/8?^5[8:1],3$,2$,1$,5/8/1-3[8:1]/4-2[8:1]/5?-7[8:1]/8?-6[8:1],,,,
{16}5h[16:11]/8h[16:11],,,,2$/3$,,,,2$/3$,,,1h[16:13]/4h[16:13],,,8h[8:3],,
{16},,7,,5h[4:1],,6,,8/8?-5[8:1],,2$,3$,,,1$/4$,,
{16}1h[16:11]/4h[16:11],,,,6/7,,5/7,,6/8,,,5h[16:13]/8h[16:13],,,1$,,
{16}1h[4:1],,2$,,4h[16:3],,3$,3-1[8:1],,,6/7,,6/7,,5/8,,
{16}5h[16:11]/8h[16:11],,,,2$/3$,,2$/4$,,1$/3$,,,1h[16:13]/4h[16:13],,,8,,
{16}8h[4:1],,7,,5h[4:1],,6,,8/8?-5[8:1],,,2$/3$,,,1$/4$,,
{8}5/1^4[8:1],6,7,8,5/1$/5?^8[8:1],2$,3$,4$,
{8}8/1w5[8:3]/8?w4[8:3],,,,,,,5,
{16}1$/5h[16:3]/4h[8:11],,,1$/6h[16:3],,,7/1$,,,,5/8/2$,,2$,,8,,
{16}1$/8h[16:3],,,1$/7h[16:3],,,6/1$,,,,5/8,,5/8,8/5h[16:25],4$,,
{16}8/4h[16:3],,,8/3h[16:3],,,8/2$,,,,7/1$/4$,,7/1$/4$,,2$,,
{16}8/2$,,3$,8,3$,,8/4$/1h[16:7],,,,5,4$,5,4h[16:25],5,,
{16}1$/5h[16:3],,,1$/6h[16:3],,,7/1$,,,,5/8/2$,,2$,,7,,
{16}7/1$,,6,1$,6,,5/8/1$,,,,8,1$,7,2$,6,3$,
{16}5/4$,,4$,5,,5,4$,,,,8/1$,,7/2$,,6/3$,,
{16}5b/7b,,,2b$/4b$,,,8b/1b$,,,,8,,7/2$,3$,6,,
{16}4h[16:3]/5h[16:3],,,1h[16:3]/8h[16:3],,,7/4$/7?^5[8:1],,,,8/2$,,3$,,8/2$,,
{16}1h[16:3]/8h[16:3],,,4h[16:3]/5h[16:3],,,6/1$/6?^8[8:1],,,,5/2$,3$,2$,,8/1$/4$,,
{16}8h[16:3]/3-1[8:1]/4-1[8:1],,,7h[16:3],,,6,,5h[16:3]/1-4[8:1]/2-4[8:1],,,6h[16:3],,,7,,
{16}1h[16:3]/8h[16:3],,,3h[16:3]/7h[16:3],,,6/2$,,5/8/2$,3$,,1$/4$,,2$/3$,,,
{16}4h[16:3]/5h[16:3],,,1h[16:3]/8h[16:3],,,5/2^4[8:1],,,,7/1$,,6,,7/1$,,
{16}1h[16:3]/8h[16:3],,,4h[16:3]/5h[16:3],,,8/3$,,1$/4$,,7/2$,6/3$,7,,5/8/1$,,
{16}5/1h[16:3]/5?pp8[4:1],,,2h[16:3],,,3$,,,,5/4$,,6/3$,,7/2$,,
{16}8/1$,,,6/3$,,,,,,,,5,4$,,,,
{16}7/8,,,7h[16:11]/8h[16:11],,,3$,4$,2$,,3$/5$,,3$/5$,,2$/4$,,
{16}7/8/2$/4$,,,3$/4$/7h[16:11]/8h[16:11],,,2$/4$,,2$/3$,,4$/5$,,3$/5$,,2$/4$,,
{16}7/8/2$/3$,,,
{631}2$/3$/7h[16:11]/8h[16:11],,,,,,,,,,,,,,,,,,,,,,,,,,,,,,,,,,,,,,,,,,,,,,,,,,,,,,,,,,,,,,,,,,,,,,,,,,,,,,,,,,,,,,,,,,,,
{983}3$,,,,,,,,,,,,,,,,,,,,,,,,,,,,,,,,,,,,,,,,,4$,,,,,,,,,,,,,,,,,,,,,,,,,,,,,,,,,,,,,,,,,
{625}3$,,,,,,,,,,,,,,,,,,,,,,,,,,
{983}4$,,,,,,,,,,,,,,,,,,,,,,,,,,,,,,,,,,,,,,,,,
{16}2$,,2$,3$,4$,3$,2$,,
{16}7/8/3$/4$,,,3$/4$/7h[16:11]/8h[16:11],,,1$/2$,,,,2$/5$,,,,,,
{16}1$/2$,,,1h[16:11]/2h[16:11],,,6/7,,4/6,,,4/6,,7,6,7,
{16}5/1$/2$,,,5/6/1h[16:11]/2h[16:11],5/6,,,4/5,,,6/7,,7,6,5,,
{16}5/6/1$/2$,,,5/6/1h[1:1]/2h[1:1],,,4/7,,5,,5,6,,6,5,,
{16}4/5,,,4h[16:11]/5h[16:11],,,1$/8$,,,,1h[4:1]/8h[4:1],,,,,,
{16}4/5/1$/8$,,,4/5/1$/8$,,,5/6/1$/2$/5?^3[8:1],,,,6/8$,,1$,,6/8$,,
{16}3/6/1$/8$,,,3/6/1$/8$,,,3/4/7$/8$/4?^6[8:1],,,,3/8$,1$,8$,,6/2$/7$,,
{16}3/6h[16:3]/1-7[8:1]/2-7[8:1],,,5h[16:3],,,4,,6/3h[16:3]/7-2[8:1]/8-2[8:1],,,4h[16:3],,,5,,
{16}3/6h[16:3]/7h[16:3],,,1h[16:3]/5h[16:3],,,4/8$,,3/6/8$,1$,,2$/7$,,1$/8$,,,
{16}6/7$/2h[16:3]/3h[16:3],,,6h[16:3]/7h[16:3],,,3/8^2[8:1],,,,5/7$,,4,,5/7$,,
{16}3/2$/6h[16:3]/7h[16:3],,,2h[16:3]/3h[16:3],,,6/1$,,2$/7$,,5/8$,4/1$,5,,3/6/7$,,
{16}3/7h[16:3]/3?pp6[4:1],,,8h[16:3],,,1$,,,,3/2$,,4/1$,,5/8$,,
{16}5b/6b/7b$,,,4b/6b/8b$,,,3b/5b/1b$,,3b/1b$/2b$,,,4b/2b$/8b$,,,5b/1b$/7b$,,
{16}3/2$/6h[16:3]/7h[16:3],,,2h[16:3]/3h[16:3],,,6/1^7[8:1],,,,4/2$,,5,,4/2$,,
{16}5/7$/2h[16:3]/3h[16:3],,,6h[16:3]/7h[16:3],,,3/8^2[8:1],,,,4/7$,5,4,,3/6/2$,,
{16}5/6/7$/2h[16:3]/5?-3[8:1]/6?-3[8:1],,,1h[16:3],,,8$,,3/4/2$/7h[16:3]/3?-6[8:1]/4?-6[8:1],,,8h[16:3],,,1$,,
{16}7$/2h[16:3]/3h[16:3],,,1h[16:3]/5h[16:3],,,4/8$,,4/2$/7$,5,,3/6,,4/5,,,
{16}3/2$/6h[16:3]/7h[16:3],,,2h[16:3]/3h[16:3],,,4/7$/4?^6[8:1],,,,3/1$,,8$,,3/1$,,
{16}6/7$/2h[16:3]/3h[16:3],,,6h[16:3]/7h[16:3],,,5/2$,,3/6,,4/1$,5/8$,1$,,3/2$/7$,,
{16}3h[16:3]/7pp2[4:1],,,4h[16:3],,,5,,,,6/7$,,5/8$,,4/1$,,
{16}3/2$,,,1h[16:11]/8h[16:11],,,3,,3/3?^6[8:1],,,,,,,,
{16}1$/8$,,,1h[16:11]/8h[16:11],,,6/7,,6/7/6?-2[8:1]/7?-3[8:1],,,,,,,,
{4}1$/8$,3/6/1$/8$/3?^6[8:1],6b/7^2[8:1],2b$,
{16}4/5,,,1$/8$,,,4/5,,,,3/6/2$/7$,,,,4b/5b/1b$/8b$,
E
